Star Trek Beyond (2016) 1CD x264 AAC 2.0 -DDR movie torrent download
You are here > Home > Star Trek Beyond (2016) 1CD x264 AAC 2.0 -DDR torrent free download

Star Trek Beyond (2016) 1CD x264 AAC 2.0 -DDR torrent free download

2016-08-14

- HollyWooD Movie-

Star Trek beyond
** 2016 **
1CD CAM / x264 / AAC 2.0

Video Flikering removed






Source : Unknown (Thanks)
Format : Matroska
File size : 697 MiB
Duration : 1h 53mn
Overall bit rate mode : Variable
Overall bit rate : 860 Kbps


Video
Format : AVC
Format/Info : Advanced Video Codec
Format profile : [email protected]
Format settings, CABAC : Yes
Format settings, ReFrames : 16 frames
Codec ID : V_MPEG4/ISO/AVC
Duration : 1h 53mn
Bit rate mode : Variable
Bit rate : 794 Kbps
Maximum bit rate : 62.5 Mbps
Width : 720 pixels
Height : 304 pixels
Display aspect ratio : 2.35:1
Frame rate mode : Constant
Frame rate : 29.970 (30000/1001) fps
Color space : YUV
Chroma subsampling : 4:2:0
Bit depth : 8 bits
Scan type : Progressive
Bits/(Pixel*Frame) : 0.121
Stream size : 643 MiB (92%)

Audio
Format : AAC
Format/Info : Advanced Audio Codec
Format profile : LC
Codec ID : A_AAC
Duration : 1h 53mn
Bit rate : 64.0 Kbps
Channel(s) : 2 channels
Channel positions : Front: L R
Sampling rate : 44.1 KHz
Frame rate : 43.066 fps (1024 spf)
Compression mode : Lossy
Delay relative to video : 10ms
Stream size : 51.9 MiB (7%)
Default : Yes

Chapters : No

Sample : Included

A DDR Rxclusive Encode
Download
Copyright 2009 - 2015 TorrentV.org All rights reserved. Contact Us  Sitemap