X-Men Apocalypse 2016 720p HDCAM x264 HQMic-Exclusive movie torrent download
You are here > Home > X-Men Apocalypse 2016 720p HDCAM x264 HQMic-Exclusive torrent free download

X-Men Apocalypse 2016 720p HDCAM x264 HQMic-Exclusive torrent free download

2016-05-22



http://www.imdb.com/title/tt3385516/


With the emergence of the world's first mutant, Apocalypse, the X-Men must unite to defeat his extinction level plan.

Director: Bryan Singer
Writers: Simon Kinberg (screenplay), Bryan Singer (story)
Stars: James McAvoy, Michael Fassbender, Jennifer Lawrence
Genres: Action | Adventure | Fantasy | Sci-Fi
Country: USA
Language: English


New HQMic Audio definitely better then any other cam audio available right now. Post credit scene added, Full movie except starting intro is missing..

Source: Portuguese720p and JzyB Audio thx.
Sample: yes included

Format : Matroska
Format version : Version 4 / Version 2
File size : 1.20 GiB
Duration : 2h 11mn
Overall bit rate : 1 311 Kbps


Video
ID : 1
Format : AVC
Format/Info : Advanced Video Codec
Format profile : [email protected]
Format settings, CABAC : Yes
Format settings, ReFrames : 5 frames
Codec ID : V_MPEG4/ISO/AVC
Duration : 2h 11mn
Bit rate : 1 199 Kbps
Width : 1 264 pixels
Height : 512 pixels
Display aspect ratio : 2.469
Frame rate mode : Constant
Frame rate : 23.976 (24000/1001) fps
Color space : YUV
Chroma subsampling : 4:2:0
Bit depth : 8 bits
Scan type : Progressive
Bits/(Pixel*Frame) : 0.077
Stream size : 1.06 GiB (88%)


Audio
ID : 2
Format : MPEG Audio
Format version : Version 1
Format profile : Layer 3
Codec ID : A_MPEG/L3
Codec ID/Hint : MP3
Duration : 2h 11mn
Bit rate mode : Constant
Bit rate : 128 Kbps
Channel(s) : 2 channels
Sampling rate : 44.1 KHz
Compression mode : Lossy
Delay relative to video : 200ms
Stream size : 120 MiB (10%)
Writing library : LAME3.99.5
Default : Yes


Download
Copyright 2009 - 2015 TorrentV.org All rights reserved. Contact Us  Sitemap