The.Jungle.Book.2016.1080p.TC.X264.Masteredition.Hive-CM8 movie torrent download
You are here > Home > The.Jungle.Book.2016.1080p.TC.X264.Masteredition.Hive-CM8 torrent free download

The.Jungle.Book.2016.1080p.TC.X264.Masteredition.Hive-CM8 torrent free download

2016-05-13



http://www.imdb.com/title/tt3040964/


An orphan boy is raised in the jungle with the help of a pack of wolves, a bear, and a black panther.

Director: Jon Favreau
Writers: Justin Marks (screenplay), Rudyard Kipling (book)
Stars: Neel Sethi, Bill Murray, Ben Kingsley
Genres: Adventure | Drama | Family | Fantasy
Country: USA
Language: English


The.Jungle.Book.2016.1080p.TC.X264.Masteredition.Hive-CM8

Thx Hive

CM8 Doing It Right The First Time

Sources:

Video: 1080p Chinese Telecine
Audio: English Line Stereo 2.0 (cpg/exclusive)
thx


Notes:
This is a special Encode which took me another 2 days of work, but the result is excellent, its a masterpiece from this source.
I have encoded it in 1080p only cause this movie needs quality. looks and sounds perfect a real cinemafeeling.
Quality is tested and optimized to look perfect even on a 75" 4K TV.


Encode:
Last Masteredition for now guys, was fun,the tag and the idea to maximize the enjoyment, hope you liked them

The Chinese telecine needed a lot of work,it was way too overbright but colours were ok on this

Since daylight scenes were too bright i lowered them to normal levels, but that would have killed the darker scenes,
so i had no other choice than to split the movie into scenes again and treat every one as needed.
it was a pita, but totally worth it. nothing is cut from the movie btw.


Line Audio was nice, cpl spots needed resync to get all lipsync.

got very nice and will do me till retail
enjoy

PS: maybe Xmen is next, we will find out soon!

Video: 1920x1028 @bitrate 5000-8000
Audio: Line AC3 2.0 Stereo
Sample: yes included


http://www.imdb.com/title/tt3040964/


General
Complete name : The.Jungle.Book.2016.1080p.TC.X264.Masteredition.Hive-CM8.mkv
Format : Matroska
Format version : Version 2
File size : 3.86 GiB
Duration : 1h 45mn
Overall bit rate mode : Variable
Overall bit rate : 5 221 Kbps
Encoded date : UTC 2016-05-12 19:50:49
Writing application : mkvmerge v5.6.0 ('Kenya Kane') built on May 27 2012 16:44:04
Writing library : libebml v1.2.3 + libmatroska v1.3.0

Video
ID : 1
Format : AVC
Format/Info : Advanced Video Codec
Format profile : [email protected]
Format settings, CABAC : Yes
Format settings, ReFrames : 4 frames
Format settings, GOP : M=4, N=33
Muxing mode : Header stripping
Codec ID : V_MPEG4/ISO/AVC
Duration : 1h 45mn
Bit rate mode : Variable
Bit rate : 4 861 Kbps
Maximum bit rate : 8 000 Kbps
Width : 1 920 pixels
Height : 1 028 pixels
Display aspect ratio : 1.85:1
Frame rate mode : Constant
Frame rate : 23.976 fps
Standard : NTSC
Color space : YUV
Chroma subsampling : 4:2:0
Bit depth : 8 bits
Scan type : Progressive
Bits/(Pixel*Frame) : 0.103
Stream size : 3.60 GiB (93%)
Language : English
Default : Yes
Forced : No
Color primaries : BT.709
Transfer characteristics : BT.709
Matrix coefficients : BT.709
Color range : Limited

Audio
ID : 2
Format : AC-3
Format/Info : Audio Coding 3
Mode extension : CM (complete main)
Format settings, Endianness : Big
Muxing mode : Header stripping
Codec ID : A_AC3
Duration : 1h 45mn
Bit rate mode : Constant
Bit rate : 256 Kbps
Channel(s) : 2 channels
Channel positions : Front: L R
Sampling rate : 48.0 KHz
Bit depth : 16 bits
Compression mode : Lossy
Stream size : 194 MiB (5%)
Language : English
Default : Yes
Forced : No


Download
Copyright 2009 - 2015 TorrentV.org All rights reserved. Contact Us  Sitemap