Batman.v.Superman-Dawn of Justice.2016.1080p.TC.X264.Masteredition.Hive-CM8 movie torrent download
You are here > Home > Batman.v.Superman-Dawn of Justice.2016.1080p.TC.X264.Masteredition.Hive-CM8 torrent free download

Batman.v.Superman-Dawn of Justice.2016.1080p.TC.X264.Masteredition.Hive-CM8 torrent free download

2016-05-09



http://www.imdb.com/title/tt2975590/


Fearing that the actions of Superman are left unchecked, Batman takes on the Man of Steel, while the world wrestles with what kind of a hero it really needs.

Director: Zack Snyder
Writers: Chris Terrio, David S. Goyer
Stars: Ben Affleck, Henry Cavill, Amy Adams
Genres: Action | Adventure | Fantasy | Sci-Fi
Country: USA
Language: English


Batman.v.Superman-Dawn of Justice.2016.1080p.TC.X264.Masteredition.Hive-CM8

Thx Hive

CM8 Doing It Right The First Time

Sources:

Video: 1080p Chinese Telecine
Audio: Direct Line (CPG/Exclusive)
thx


Notes:
This is a special Encode which took me a whole week of work, but the result is excellent, its a masterpiece from this source.
I have encoded it in 1080p only cause this movie needs quality. daylight scenes are perfect and night scenes are now too.
Quality is tested and optimized to look perfect even on a 75" 4K TV.


Encode:
The Chinese telecine needed a lot of work, brightness,constrast,colours,saturation,black base,white base...
and that all changed from scene to scene differently, so i had no other choice than to split the movie in scenes, and do each one as needed,
ended up with 120 files and 1tb of data, and manually corrected them each.
it was a pita, but totally worth it. nothing is cut from the movie btw.

Line Audio was great, lipsynced to my video.

got very nice and will do me till retail
enjoy

PS: more Masteredition are coming!

Video: 1920x820 @bitrate 5000-8000
Audio: Line AC3 2.0 Stereo
Sample: yes included



http://www.imdb.com/title/tt2975590/


General
Complete name : Batman.v.Superman-Dawn of Justice.2016.1080p.TC.X264.Masteredition.Hive-CM8.mkv
Format : Matroska
Format version : Version 2
File size : 5.54 GiB
Duration : 2h 31mn
Overall bit rate mode : Variable
Overall bit rate : 5 241 Kbps
Encoded date : UTC 2016-05-06 19:35:14
Writing application : mkvmerge v5.6.0 ('Kenya Kane') built on May 27 2012 16:44:04
Writing library : libebml v1.2.3 + libmatroska v1.3.0

Video
ID : 1
Format : AVC
Format/Info : Advanced Video Codec
Format profile : [email protected]
Format settings, CABAC : Yes
Format settings, ReFrames : 4 frames
Format settings, GOP : M=4, N=33
Muxing mode : Header stripping
Codec ID : V_MPEG4/ISO/AVC
Duration : 2h 31mn
Bit rate mode : Variable
Bit rate : 4 880 Kbps
Maximum bit rate : 8 000 Kbps
Width : 1 920 pixels
Height : 820 pixels
Display aspect ratio : 2.35:1
Frame rate mode : Constant
Frame rate : 29.970 fps
Standard : NTSC
Color space : YUV
Chroma subsampling : 4:2:0
Bit depth : 8 bits
Scan type : Progressive
Bits/(Pixel*Frame) : 0.103
Stream size : 5.16 GiB (93%)
Language : English
Default : Yes
Forced : No
Color primaries : BT.709
Transfer characteristics : BT.709
Matrix coefficients : BT.709
Color range : Limited

Audio
ID : 2
Format : AC-3
Format/Info : Audio Coding 3
Mode extension : CM (complete main)
Format settings, Endianness : Big
Muxing mode : Header stripping
Codec ID : A_AC3
Duration : 2h 31mn
Bit rate mode : Constant
Bit rate : 256 Kbps
Channel(s) : 2 channels
Channel positions : Front: L R
Sampling rate : 48.0 KHz
Bit depth : 16 bits
Compression mode : Lossy
Stream size : 277 MiB (5%)
Language : English
Default : Yes
Forced : No


Download
Copyright 2009 - 2015 TorrentV.org All rights reserved. Contact Us  Sitemap