The Jungle Book 2016 HD-TC x264-UNiQUE movie torrent download
You are here > Home > The Jungle Book 2016 HD-TC x264-UNiQUE torrent free download

The Jungle Book 2016 HD-TC x264-UNiQUE torrent free download

2016-04-26



http://www.imdb.com/title/tt3040964/


An orphan boy is raised in the jungle with the help of a pack of wolves, a bear, and a black panther.

Director: Jon Favreau
Writers: Justin Marks (screenplay), Rudyard Kipling (book)
Stars: Neel Sethi, Bill Murray, Ben Kingsley
Genres: Adventure | Drama | Family | Fantasy
Country: USA
Language: English


Format : Matroska
File size : 1.42 GiB
Duration : 1h 45mn
Overall bit rate : 1 927 Kbps

Video
ID : 1
Format : AVC
Format/Info : Advanced Video Codec
Format profile : [email protected]
Format settings, CABAC : Yes
Format settings, ReFrames : 4 frames
Codec ID : V_MPEG4/ISO/AVC
Duration : 1h 45mn
Bit rate : 1 800 Kbps
Width : 720 pixels
Height : 384 pixels
Display aspect ratio : 1.85:1
Frame rate mode : Constant
Frame rate : 23.976 (24000/1001) fps
Color space : YUV
Chroma subsampling : 4:2:0
Bit depth : 8 bits
Scan type : Progressive
Bits/(Pixel*Frame) : 0.272
Stream size : 1.33 GiB (93%)


Audio
ID : 2
Format : MPEG Audio
Format version : Version 1
Format profile : Layer 3
Codec ID : A_MPEG/L3
Codec ID/Hint : MP3
Duration : 1h 45mn
Bit rate mode : Constant
Bit rate : 128 Kbps
Channel(s) : 2 channels
Sampling rate : 44.1 KHz
Frame rate : 38.281 fps (1152 spf)
Compression mode : Lossy
Delay relative to video : 1s 600ms
Stream size : 96.7 MiB (7%)
Default : Yes
Forced : No


Source
Video:720pTCmp4ba
Audio: CPG


Download
Copyright 2009 - 2015 TorrentV.org All rights reserved. Contact Us  Sitemap