Zootopia 2016 HD-TC x264 AC3 TiTAN movie torrent download
You are here > Home > Zootopia 2016 HD-TC x264 AC3 TiTAN torrent free download

Zootopia 2016 HD-TC x264 AC3 TiTAN torrent free download

2016-04-23



http://www.imdb.com/title/tt2948356/


In a city of anthropomorphic animals, a rookie bunny cop and a cynical con artist fox must work together to uncover a conspiracy.

Directors: Byron Howard, Rich Moore
Writers: Byron Howard (story by), Jared Bush (story by)
Stars: Ginnifer Goodwin, Jason Bateman, Idris Elba
Genres: Animation | Action | Adventure | Comedy | Crime | Family
Country: USA
Language: English | Norwegian


Source: 720pTC MP-BA/Exclusive

General

Format : Matroska
Format version : Version 2
File size : 1.04 GiB
Duration : 1h 47mn
Overall bit rate mode : Variable
Overall bit rate : 1 385 Kbps

Video
ID : 1
Format : AVC
Format/Info : Advanced Video Codec
Format profile : [email protected]
Format settings, CABAC : Yes
Format settings, ReFrames : 3 frames
Codec ID : V_MPEG4/ISO/AVC
Duration : 1h 47mn
Bit rate mode : Variable
Bit rate : 1 134 Kbps
Maximum bit rate : 40.0 Mbps
Width : 720 pixels
Height : 304 pixels
Display aspect ratio : 2.35:1
Frame rate mode : Constant
Frame rate : 23.976 fps
Color space : YUV
Chroma subsampling : 4:2:0
Bit depth : 8 bits
Scan type : Progressive
Bits/(Pixel*Frame) : 0.216
Stream size : 870 MiB (82%)
Default : Yes
Forced : No
Color primaries : BT.709
Transfer characteristics : BT.709
Matrix coefficients : BT.709

Audio
ID : 2
Format : AC-3
Format/Info : Audio Coding 3
Mode extension : CM (complete main)
Format settings, Endianness : Big
Codec ID : A_AC3
Duration : 1h 47mn
Bit rate mode : Constant
Bit rate : 224 Kbps
Channel(s) : 2 channels
Channel positions : Front: L R
Sampling rate : 44.1 KHz
Bit depth : 16 bits
Compression mode : Lossy
Stream size : 172 MiB (16%)
Language : English
Default : Yes
Forced : No


Download
Copyright 2009 - 2015 TorrentV.org All rights reserved. Contact Us  Sitemap