Deadpool.2016.HD-TS.XVID.AC3.HQ.Hive-CM8 movie torrent download
You are here > Home > Deadpool.2016.HD-TS.XVID.AC3.HQ.Hive-CM8 torrent free download

Deadpool.2016.HD-TS.XVID.AC3.HQ.Hive-CM8 torrent free download

2016-02-26



Deadpool.2016.HD-TS.XVID.AC3.HQ.Hive-CM8

Thx Hive

CM8 Doing It Right The First Time

Sources:

Video: HDCAM thx

Audio: Exclusive Line Thx


Notes:

Waited for a complete good source to make the perfect release, best possible Video and best possible Line combined
Wouldnt bother you with an incomplete low quality v1-v3 or proper and new tag for this blockbuster.
One good release is the way to go even if it takes a week or more, patience
thx for everyone involved

Encode:

Video was already awesome, rotated,fixed ar and perspective, fixed rgb and movement parts.
appended credits and both afterend creditsscenes to one single file, as it should be.
full video nothing is missing

Audio was a nice line, sounded weird though, like mono sourround, fixed the channels to normal stereo
sounds perfect now, and lipsycned it to my video

wont get better than this till retail
enjoy

Video: 720x314 @bitrate 1700 2pass
Audio: Line AC3 2.0 Stereo
Sample: yes included



http://www.imdb.com/title/tt1431045/



General
Complete name : Deadpool.2016.HD-TS.XVID.AC3.HQ.Hive-CM8.avi
Format : AVI
Format/Info : Audio Video Interleave
File size : 1.42 GiB
Duration : 1h 43mn
Overall bit rate : 1 966 Kbps
Writing application : Nandub v1.0rc2
Writing library : Nandub build 1853/release

Video
ID : 0
Format : MPEG-4 Visual
Format profile : Advanced [email protected]
Format settings, BVOP : 2
Format settings, QPel : Yes
Format settings, GMC : No warppoints
Format settings, Matrix : Default (H.263)
Muxing mode : Packed bitstream
Codec ID : XVID
Codec ID/Hint : XviD
Duration : 1h 43mn
Bit rate : 1 700 Kbps
Width : 720 pixels
Height : 314 pixels
Display aspect ratio : 2.25:1
Frame rate : 23.976 fps
Color space : YUV
Chroma subsampling : 4:2:0
Bit depth : 8 bits
Scan type : Progressive
Compression mode : Lossy
Bits/(Pixel*Frame) : 0.314
Stream size : 1.23 GiB (86%)
Writing library : XviD 1.2.1 (UTC 2008-12-04)

Audio
ID : 1
Format : AC-3
Format/Info : Audio Coding 3
Mode extension : CM (complete main)
Format settings, Endianness : Big
Codec ID : 2000
Duration : 1h 43mn
Bit rate mode : Constant
Bit rate : 256 Kbps
Channel(s) : 2 channels
Channel positions : Front: L R
Sampling rate : 48.0 KHz
Bit depth : 16 bits
Compression mode : Lossy
Delay relative to video : 14ms
Stream size : 190 MiB (13%)
Alignment : Split accross interleaves
Interleave, duration : 42 ms (1.00 video frame)
Interleave, preload duration : 500 ms




Screens






Plot

A former Special Forces operative turned mercenary is subjected to a rogue experiment
that leaves him with accelerated healing powers, adopting the alter ego Deadpool.

Cast

Cast overview, first billed only:
Ryan Reynolds ... Wade / Deadpool
Karan Soni ... Dopinder
Ed Skrein ... Ajax
Michael Benyaer ... Warlord
Stefan Kapicic ... Colossus (voice)
Brianna Hildebrand ... Negasonic Teenage Warhead
Style Dayne ... Jeremy (Pizza Guy)
Kyle Cassie ... Gavin Merchant
Taylor Hickson ... Meghan Orlovsky


[video=https://www.youtube.com/watch?v=9vN6DHB6bJc]



Greetz

SugarB,iNCOMiNG,Izzy,MenaceIISociety,jiinx,SiMPLE,CherryBomb,bigguy79
ranbailey,ViSiON,UnKnOwN,YanKeeS,COPYxRIGHT,THC,VAiN,ACAB,DRs
LKRG,Kingstoner,SiMPLE,TiTAN,cadance,PLAYNOW
Unevano,BigVik,Rapeseed,SAFC,goldadvance,KaN1vE,Pinnz,Wayne,HiGH
SeeN,jtr,Limey,ICONiK,TED,rkofan,mrtoke09
Mr Hive




LOOKING FOR ANYTHING YOU WANT TO LOOK AND SOUND BETTER

COME FIND US WE DONT BITE
Download
Copyright 2009 - 2015 TorrentV.org All rights reserved. Contact Us  Sitemap