Deadpool 2016 NEW SOURCE HDCAM XviD-RAV3N movie torrent download
You are here > Home > Deadpool 2016 NEW SOURCE HDCAM XviD-RAV3N torrent free download

Deadpool 2016 NEW SOURCE HDCAM XviD-RAV3N torrent free download

2016-02-23



http://www.imdb.com/title/tt1431045/


A former Special Forces operative turned mercenary is subjected to a rogue experiment that leaves him with accelerated healing powers, adopting the alter ego Deadpool.

Director: Tim Miller
Writers: Rhett Reese, Paul Wernick
Stars: Ryan Reynolds, Morena Baccarin, T.J. Miller
Genres: Action | Adventure | Comedy | Fantasy | Sci-Fi | Thriller
Country: USA | Canada
Language: English


Source: its a NEW Complete Source. Full movie no end credits though Sample in Torrent.

Infomation

Format : AVI
Format/Info : Audio Video Interleave
Format profile : OpenDML
File size : 1.41 GiB
Duration : 1h 40mn
Overall bit rate : 2 003 Kbps
Writing application : Lavf56.30.100

Video
ID : 0
Format : MPEG-4 Visual
Format profile : Advanced [email protected]
Format settings, BVOP : No
Format settings, QPel : No
Format settings, GMC : No warppoints
Format settings, Matrix : Default (H.263)
Codec ID : XVID
Codec ID/Hint : XviD
Duration : 1h 40mn
Bit rate : 1 864 Kbps
Width : 720 pixels
Height : 320 pixels
Display aspect ratio : 16:9
Frame rate : 23.976 fps
Color space : YUV
Chroma subsampling : 4:2:0
Bit depth : 8 bits
Scan type : Progressive
Compression mode : Lossy
Bits/(Pixel*Frame) : 0.337
Stream size : 1.31 GiB (93%)
Title : mpeg4 720x320 16/9
Writing library : Lavc56.35.101

Audio
ID : 1
Format : AC-3
Format/Info : Audio Coding 3
Mode extension : CM (complete main)
Format settings, Endianness : Big
Codec ID : 2000
Duration : 1h 40mn
Bit rate mode : Constant
Bit rate : 128 Kbps
Channel(s) : 2 channels
Channel positions : Front: L R
Sampling rate : 44.1 KHz
Bit depth : 16 bits
Compression mode : Lossy
Stream size : 92.2 MiB (6%)
Alignment : Aligned on interleaves
Interleave, duration : 35 ms (0.83 video frame)
Title : ac3 44100Hz 2Ch.


Download
Copyright 2009 - 2015 TorrentV.org All rights reserved. Contact Us  Sitemap