Zoolander.2.2016.HDTS.XVID.AC3.HQ.Hive-CM8 movie torrent download
You are here > Home > Zoolander.2.2016.HDTS.XVID.AC3.HQ.Hive-CM8 torrent free download

Zoolander.2.2016.HDTS.XVID.AC3.HQ.Hive-CM8 torrent free download

2016-02-16



http://www.imdb.com/title/tt1608290/


Derek and Hansel are modelling again when an opposing company attempts to take them out from the business.

Director: Ben Stiller
Writers: Justin Theroux, Ben Stiller
Stars: Ben Stiller, Owen Wilson, Penélope Cruz
Genres: Comedy
Country: USA
Language: English


Zoolander.2.2016.HDTS.XVID.AC3.HQ.Hive-CM8

Thx Hive

CM8 Doing It Right The First Time

Sources:

Video: 1080p Incoming big thx
Audio: Sweet Direct Line Big Thx to S4NDM4N which didnt cost 200 dollars lol

Notes:

This is a perfect release, best possible Video and best possible Line combined
thx for everyone involved

Encode:

Video was already awesome, fixed perspective and slightly removed some noise and flicker in the video
full video nothing is missing

Audio was already direct, as perfect as it can be, lipsycned to my video
wont get better than this till retail
enjoy

Video: 720x400 @bitrate 1800 2pass
Audio: English Direct Line AC3 2.0 Stereo
Sample: yes included
http://www.imdb.com/title/tt1608290/

General
Complete name: Zoolander.2.2016.HDTS.XVID.AC3.HQ.Hive-CM8.avi
Format: AVI
Format/Info: Audio Video Interleave
File size: 1.38 GiB
Duration: 1h 35mn
Overall bit rate: 2 070 Kbps
Writing application: Nandub v1.0rc2
Writing library: Nandub build 1853/release

Video
ID: 0
Format: MPEG-4 Visual
Format profile: Advanced [email protected]
Format settings, BVOP: 2
Format settings, QPel: Yes
Format settings, GMC: No warppoints
Format settings, Matrix: Default (H.263)
Muxing mode: Packed bitstream
Codec ID: XVID
Codec ID/Hint: XviD
Duration: 1h 35mn
Bit rate: 1 801 Kbps
Width: 720 pixels
Height: 400 pixels
Display aspect ratio: 16:9
Frame rate: 29.970 fps
Color space: YUV
Chroma subsampling: 4:2:0
Bit depth: 8 bits
Scan type: Progressive
Compression mode: Lossy
Bits/(Pixel*Frame): 0.209
Stream size: 1.21 GiB (87%)
Writing library: XviD 1.2.1 (UTC 2008-12-04)

Audio
ID: 1
Format: AC-3
Format/Info: Audio Coding 3
Mode extension: CM (complete main)
Format settings, Endianness: Big
Codec ID: 2000
Duration: 1h 35mn
Bit rate mode: Constant
Bit rate: 256 Kbps
Channel(s): 2 channels
Channel positions: Front: L R
Sampling rate: 48.0 KHz
Bit depth: 16 bits
Compression mode: Lossy
Stream size: 175 MiB (12%)
Alignment: Split accross interleaves
Interleave, duration: 33 ms (1.00 video frame)
Interleave, preload duration: 500 ms


Download
Copyright 2009 - 2015 TorrentV.org All rights reserved. Contact Us  Sitemap