The.Choice.2016.HQ.TS.VOSE movie torrent download
You are here > Home > The.Choice.2016.HQ.TS.VOSE torrent free download

The.Choice.2016.HQ.TS.VOSE torrent free download

2016-02-15



http://www.imdb.com/title/tt3797868/


Travis and Gabby first meet as neighbors in a small coastal town and wind up in a relationship that is tested by life's most defining events.

Director: Ross Katz
Writers: Bryan Sipe (screenplay), Nicholas Sparks (novel)
Stars: Benjamin Walker, Teresa Palmer, Alexandra Daddario
Genres: Drama | Romance
Country: USA
Language: English


Format : AVI
Format/Info : Audio Video Interleave
Format profile : OpenDML
File size : 1.65 GiB
Duration : 1h 42mn
Overall bit rate : 2 305 Kbps
Writing application : Lavf53.32.100

ID : 0
Format : AVC
Format/Info : Advanced Video Codec
Format profile : [email protected]
Format settings, CABAC : Yes
Format settings, ReFrames : 2 frames
Codec ID : H264
Duration : 1h 42mn
Bit rate : 2 100 Kbps
Width : 720 pixels
Height : 274 pixels
Display aspect ratio : 2.628
Frame rate : 23.976 (24000/1001) fps
Color space : YUV
Chroma subsampling : 4:2:0
Bit depth : 8 bits
Scan type : Progressive
Bits/(Pixel*Frame) : 0.444
Stream size : 1.50 GiB (91%)
Writing library : x264 core
Color range : Limited
Color primaries : BT.601 NTSC
Transfer characteristics : BT.709
Matrix coefficients : BT.601

ID : 1
Format : MPEG Audio
Format version : Version 1
Format profile : Layer 3
Mode : Joint stereo
Mode extension : MS Stereo
Codec ID : 55
Codec ID/Hint : MP3
Duration : 1h 42mn
Bit rate mode : Constant
Bit rate : 192 Kbps
Channel(s) : 2 channels
Sampling rate : 48.0 KHz
Compression mode : Lossy
Stream size : 141 MiB (8%)
Alignment : Aligned on interleaves
Interleave, duration : 24 ms (0.58 video frame)


Download
Copyright 2009 - 2015 TorrentV.org All rights reserved. Contact Us  Sitemap