Point.Break.2015.HDCAM.XVID.AC3.HQ.Hive-CM8 movie torrent download
You are here > Home > Point.Break.2015.HDCAM.XVID.AC3.HQ.Hive-CM8 torrent free download

Point.Break.2015.HDCAM.XVID.AC3.HQ.Hive-CM8 torrent free download

2016-02-10



http://www.imdb.com/title/tt2058673/


A young FBI agent infiltrates an extraordinary team of extreme sports athletes he suspects of masterminding a string of unprecedented, sophisticated corporate heists. "Point Break" is inspired by the classic 1991 hit.

Director: Ericson Core
Writers: Kurt Wimmer (screenplay), Rick King (story)
Stars: Teresa Palmer, Luke Bracey, Édgar Ramírez
Genres: Action | Crime | Sport | Thriller
Country: Germany | China | USA
Language: English


Point.Break.2015.HDCAM.XVID.AC3.HQ.Hive-CM8

Thx Hive

CM8 Doing It Right The First Time

Sources:

Video: 720p Italian Race-Crew
Audio: Mic Audio from UnKnOwN
thx guys

Encode:

Video was nice, was already bright enough, fixed perspective and added slightly sharpness
for security reasons had to remove 30 secs the rest is all here
Audio is a nice mic, you can hear whats been said, no line on this sorry, perhaps on the next one
lipsynced to my video

will do me just fine
enjoy

Video: 720x320 @bitrate 1700 2pass
Audio: English Mic Stereo
Samples: yes included
http://www.imdb.com/title/tt2058673/

General
Complete name: Point.Break.2015.HDCAM.XVID.AC3.HQ.Hive-CM8.avi
Format: AVI
Format/Info: Audio Video Interleave
File size: 1.35 GiB
Duration: 1h 38mn
Overall bit rate: 1 963 Kbps
Writing application: Nandub v1.0rc2
Writing library: Nandub build 1853/release

Video
ID: 0
Format: MPEG-4 Visual
Format profile: Advanced [email protected]
Format settings, BVOP: 2
Format settings, QPel: Yes
Format settings, GMC: No warppoints
Format settings, Matrix: Default (H.263)
Muxing mode: Packed bitstream
Codec ID: XVID
Codec ID/Hint: XviD
Duration: 1h 38mn
Bit rate: 1 697 Kbps
Width: 720 pixels
Height: 320 pixels
Display aspect ratio: 2.25:1
Frame rate: 25.049 fps
Original frame rate: 25.052 fps
Color space: YUV
Chroma subsampling: 4:2:0
Bit depth: 8 bits
Scan type: Progressive
Compression mode: Lossy
Bits/(Pixel*Frame): 0.294
Stream size: 1.17 GiB (86%)
Writing library: XviD 1.2.1 (UTC 2008-12-04)

Audio
ID: 1
Format: AC-3
Format/Info: Audio Coding 3
Mode extension: CM (complete main)
Format settings, Endianness: Big
Codec ID: 2000
Duration: 1h 38mn
Bit rate mode: Constant
Bit rate: 256 Kbps
Channel(s): 2 channels
Channel positions: Front: L R
Sampling rate: 48.0 KHz
Bit depth: 16 bits
Compression mode: Lossy
Stream size: 180 MiB (13%)
Alignment: Split accross interleaves
Interleave, duration: 40 ms (1.00 video frame)
Interleave, preload duration: 500 ms


Download
Copyright 2009 - 2015 TorrentV.org All rights reserved. Contact Us  Sitemap